Skip to main content

Justin Townes Earle Live at Memorial Union Terrace - UW Madison on 2010-07-03




01. Move On Over Mama
02. They Killed John Henry
03. I Don't Care
04. Halfway to Jackson
05. Mama's Eyes
06. Ain't Waitin'
07. What I Mean To You
08. Someday I'll Be Forgiven for This
09. A Wanderin'
10. Walk Out


Collection JustinTownesEarle
Band/Artist Justin Townes Earle
Venue Memorial Union Terrace - UW Madison
Location Madison WI USA

Source Soundcraft Live 8 SBD > H2 > WAV @24/48 WAV @24/48
Lineage WAVs > Audacity > xACT > FLAC
Taped by morst
Transferred by morst

Notes

Dawes & Justin Townes Earle performed after the simulcast of Rhythm & Booms ' radio program on WOLX-FM, which was sync'd with the Warner Park fireworks display across the lake.

Duo format with JTE & Joshua Hedley

Dawes set:
16-bit for CD burning: http://www.archive.org/details/Dawes2010-07-03

24-bit high-res: http://www.archive.org/details/Dawes2010-07-03.2448

Source:
Soundcraft Spirit 8 SBD > Zoom H2 > WAV @24-bit/48kHz

Transfer:
WAVs > Powermac G4 > Audacity 1.3.12 (tracking & SRC) > WAV > xACT 1.72 > FLAC level 8

FoH Audio (Intellisound): Scott Steger

Recorded by: morst

SHNTOOL:
length expanded size cdr WAVE problems fmt ratio filename
2:53.02 30521948 B --- -- ---xx JTE2010-07-03-SBD-t01.flac
3:39.29 38699852 B --- -- ---xx JTE2010-07-03-SBD-t02.flac
2:14.16 23675276 B --- -- ---xx JTE2010-07-03-SBD-t03.flac
4:49.72 51148988 B --- -- ---xx JTE2010-07-03-SBD-t04.flac
4:26.29 46990652 B --- -- ---xx JTE2010-07-03-SBD-t05.flac
3:21.13 35487020 B --- -- ---xx JTE2010-07-03-SBD-t06.flac
3:15.18 34440380 B --- -- ---xx JTE2010-07-03-SBD-t07.flac
4:11.66 44431676 B --- -- ---xx JTE2010-07-03-SBD-t08.flac
3:09.40 33433724 B --- -- ---xx JTE2010-07-03-SBD-t09.flac
3:24.61 36129116 B --- -- ---xx JTE2010-07-03-SBD-t10.flac
35:25.46 374958632 B 0.3463 (10 files)

-~-~-~-~-~-~-~-~-~-~-~-~-~-~-~-~-~-~-~-~-~-~-~-~-~-
The Soundscape Preservation Society (Founded 1991)
http://www.iamtypingwithonefinger.com/SPS.html
-~-~-~-~-~-~-~-~-~-~-~-~-~-~-~-~-~-~-~-~-~-~-~-~-~-

Reviews

Reviewer: obh2o - - September 14, 2010
Subject: Thank you !!
Many thanks for sharing JTE !!

The first song is titled - Move On Over Mama ;)
PEOPLE ALSO FOUND
Justin Townes Earle
by Justin Townes Earle
2,938
2
3
( 3 reviews )
Source: SBD + Audience Matrix
Justin Townes Earle
by Justin Townes Earle
1,173
1
1
( 1 reviews )
Source: Soundcraft Live 8 SBD > H2 > WAV @24/48 WAV @24/48
Justin Townes Earle
by Justin Townes Earle
2,772
2
1
( 1 reviews )
Source: SBD > Sony PCM-M1 > DAT + Neumann KM140’s > MV100 > -11dB attenuator cable > H2 (mic pads set at -10dB) > WAV @24-bit/48kHz (clamped at front of balcony railing over SBD)
Justin Townes Earle
by Justin Townes Earle
2,968
3
2
( 2 reviews )
Source: SBD > Sony PCM-M1 > DAT + Neumann KM140’s > MV100 > -11dB attenuator cable > H2 (mic pads set at -10dB) > WAV @24-bit/48kHz (clamped on ctr post, ~8' high
Dead Rock West
by Dead Rock West
166
1
0
Source: AT853 > AT8531 > Edirol R-09
Cracker
by Cracker
246
1
0
Source: DAUD @48kHz, 24 bit
The Kind
by The Kind
3,210
0
1
( 1 reviews )
Source: Sony ECM-909 > D6 > CAS
Mojo Radio
by Mojo Radio
178
1
0
Source: Zoom H2 handy recorder, Built-in mics @ 90degrees > WAV @24bit/48kHz
ted quinn
259
1
0
Source: DAUD
Flame Shark
by Flame Shark
1,083
1
0
Source: KM140's > MV100 > PCM-M1